<?xml version="1.0" standalone="no"?>
<!DOCTYPE svg PUBLIC "-//W3C//DTD SVG 1.1//EN" "http://www.w3.org/Graphics/SVG/1.1/DTD/svg11.dtd" >
<svg xmlns="http://www.w3.org/2000/svg">
<metadata>Generated by IcoMoon</metadata>
<defs>
<font id="icomoon" horiz-adv-x="512">
<font-face units-per-em="512" ascent="480" descent="-32" />
<missing-glyph horiz-adv-x="512" />
<glyph unicode="&#x20;" d="" horiz-adv-x="256" />
<glyph unicode="&#xe600;" d="M302.624 224c0-23.541-19.084-42.624-42.624-42.624s-42.624 19.084-42.624 42.624c0 23.541 19.083 42.624 42.624 42.624s42.624-19.084 42.624-42.624zM260 377.6c-84.832 0-153.6-68.768-153.6-153.6 0-84.8 68.768-153.632 153.632-153.632 84.832 0 153.568 68.8 153.568 153.632s-68.768 153.6-153.6 153.6zM260 159.328c-35.68 0-64.672 28.992-64.672 64.672s28.992 64.704 64.672 64.704 64.672-29.024 64.672-64.704-28.992-64.672-64.672-64.672zM464 480h-416c-26.528 0-48-21.504-48-48v-416c0-26.496 21.472-48 48-48h416c26.528 0 48 21.504 48 48v416c0 26.496-21.472 48-48 48zM450.56 78.048c0-26.88-21.792-48.64-48.64-48.64h-291.84c-26.848 0-48.64 21.76-48.64 48.64v291.872c0 26.848 21.792 48.64 48.64 48.64h291.84c26.848 0 48.64-21.792 48.64-48.64v-291.872z" />
<glyph unicode="&#xe601;" d="M227.968 480h-179.968c-26.528 0-48-21.504-48-48v-176h61.44v113.92c0 26.848 21.792 48.64 48.64 48.64h117.92v61.44zM464 480h-172v-61.44h109.952c26.848 0 48.64-21.792 48.64-48.64v-113.92h61.408v176c0 26.496-21.472 48-48 48zM227.968 29.44h-117.888c-26.848 0-48.64 21.76-48.64 48.64v113.92h-61.44v-176c0-26.496 21.472-48 48-48h179.968v61.44zM450.56 192v-113.952c0-26.88-21.792-48.64-48.64-48.64h-109.92v-61.408h172c26.528 0 48 21.504 48 48v176h-61.44zM292 373.92v-93.952c9.888-5.792 18.144-13.984 23.872-23.968h94.272c-12.512 59.136-59.104 105.312-118.144 117.92zM227.968 373.888c-59.040-12.608-105.6-58.784-118.144-117.888h94.304c5.728 9.952 13.984 18.176 23.872 23.936v93.952zM227.968 168.064c-9.856 5.76-18.112 13.984-23.84 23.936h-94.272c12.544-59.072 59.104-105.312 118.144-117.92v93.984zM315.872 192c-5.728-9.952-13.984-18.176-23.872-23.968v-93.984c59.072 12.608 105.632 58.848 118.176 117.952h-94.304z" />
<glyph unicode="&#xe602;" d="M256.032 320.8c80.8 0 153.184-36.544 201.728-93.856l54.24 45.856c-61.664 72.672-153.44 119.040-255.968 119.040-102.624 0-194.432-46.336-256.032-119.040l54.176-45.856c48.576 57.344 120.96 93.856 201.856 93.856zM255.936 189.152c40.672 0 77.056-18.304 101.472-47.168l54.208 45.888c-37.472 44.224-93.28 72.384-155.68 72.384-62.304 0-118.144-28.16-155.616-72.384l54.208-45.888c24.416 28.864 60.832 47.168 101.408 47.168zM204.192 100l51.776-43.808 51.84 43.808c0 0-19.744 24.32-51.84 24.32-32.064 0-51.776-24.32-51.776-24.32z" />
<glyph unicode="&#xe603;" d="M331.136 276.96h-227.104c-23.968 0-43.456-19.488-43.456-43.456v-166.528c0-23.968 19.488-43.456 43.456-43.456h227.104c23.968 0 43.456 19.488 43.456 43.456v166.496c0 23.968-19.488 43.488-43.456 43.488zM348.224 66.944c0-9.44-7.648-17.088-17.088-17.088h-227.104c-9.408 0-17.088 7.648-17.088 17.088v166.528c0 9.408 7.68 17.088 17.088 17.088h227.104c9.44 0 17.088-7.68 17.088-17.088v-166.528zM458.432 97.216c0-16.719-13.553-30.272-30.272-30.272s-30.272 13.553-30.272 30.272c0 16.719 13.553 30.272 30.272 30.272s30.272-13.553 30.272-30.272zM458.432 203.2c0-16.719-13.553-30.272-30.272-30.272s-30.272 13.553-30.272 30.272c0 16.719 13.553 30.272 30.272 30.272s30.272-13.553 30.272-30.272zM453.28 332.832h-153.376l106.208 112.736c6.048 6.816 6.048 17.888 0 24.736-6.016 6.784-15.84 6.784-21.856 0l-128.064-137.472h-7.264l-70.080 79.36c-6.016 6.816-15.84 6.816-21.888 0-6.016-6.848-6.016-17.888 0-24.736l48.288-54.624h-146.528c-32.384 0-58.72-26.336-58.72-58.72v-242.816c0-32.384 26.336-58.72 58.72-58.72h394.56c32.384 0 58.72 26.336 58.72 58.72v242.816c0 32.384-26.336 58.72-58.72 58.72zM485.632 31.296c0-17.856-14.496-32.352-32.352-32.352h-394.56c-17.856 0-32.352 14.496-32.352 32.352v242.816c0 17.856 14.496 32.32 32.352 32.32h394.56c17.856 0 32.352-14.464 32.352-32.32v-242.816z" />
<glyph unicode="&#xe604;" d="M236.032 86.528c0-16.719-13.553-30.272-30.272-30.272s-30.272 13.553-30.272 30.272c0 16.719 13.553 30.272 30.272 30.272s30.272-13.553 30.272-30.272zM184.224 148.064c0-16.719-13.553-30.272-30.272-30.272s-30.272 13.553-30.272 30.272c0 16.719 13.553 30.272 30.272 30.272s30.272-13.553 30.272-30.272zM130.016 86.528c0-16.719-13.553-30.272-30.272-30.272s-30.272 13.553-30.272 30.272c0 16.719 13.553 30.272 30.272 30.272s30.272-13.553 30.272-30.272zM453.28 348.256h-274.816l197.344 60.768c5.536-5.92 13.344-9.664 22.112-9.664 16.704 0 30.272 13.568 30.272 30.272s-13.568 30.272-30.272 30.272c-15.168 0-27.584-11.168-29.856-25.664l-274.976-84.672c-0.896-0.256-1.632-0.832-2.4-1.312h-32c-32.384 0-58.688-26.304-58.688-58.688v-242.848c0-32.384 26.304-58.72 58.688-58.72h394.592c32.384 0 58.72 26.336 58.72 58.72v242.848c0 32.384-26.336 58.688-58.72 58.688zM485.632 46.72c0-17.824-14.496-32.352-32.352-32.352h-394.592c-17.824 0-32.32 14.528-32.32 32.352v242.848c0 17.824 14.496 32.32 32.32 32.32h394.592c17.856 0 32.352-14.496 32.352-32.32v-242.848zM358.816 251.584c-52.224 0-94.688-42.464-94.688-94.688 0-52.256 42.464-94.72 94.688-94.72s94.72 42.464 94.72 94.72c0 52.224-42.496 94.688-94.72 94.688zM358.816 88.544c-37.696 0-68.32 30.656-68.32 68.352 0 37.664 30.624 68.32 68.32 68.32s68.352-30.656 68.352-68.32c0-37.696-30.656-68.352-68.352-68.352zM227.232 261.824h-131.392c-9.728 0-17.6-7.84-17.6-17.568s7.872-17.6 17.6-17.6h131.36c9.728 0 17.6 7.872 17.6 17.6s-7.872 17.568-17.568 17.568z" />
<glyph unicode="&#xe605;" d="M484.128 297.472h-456.256c-15.36 0-27.872-12.48-27.872-27.872v-91.264c0-15.36 12.512-27.872 27.872-27.872h456.256c15.392 0 27.872 12.512 27.872 27.872v91.264c0 15.392-12.512 27.872-27.872 27.872zM27.872 282.304h456.256c6.976 0 12.672-5.696 12.672-12.704v-38.016h-371.104c-3.584 19.968-21.056 35.2-42.048 35.2-20.96 0-38.432-15.232-42.016-35.2h-26.4v38.016c0 7.008 5.632 12.704 12.64 12.704zM111.2 224c0-15.2-12.352-27.552-27.552-27.552s-27.52 12.384-27.52 27.552 12.352 27.552 27.52 27.552c15.2 0 27.552-12.384 27.552-27.552zM484.128 165.696h-456.256c-7.008 0-12.64 5.664-12.64 12.64v38.048h26.368c3.584-19.968 21.056-35.2 42.016-35.2 20.992 0 38.464 15.232 42.048 35.2h371.104v-38.048c0-6.976-5.664-12.64-12.64-12.64zM381.024 246.272h87.648c5.728 0 10.368 4.608 10.368 10.336s-4.672 10.336-10.368 10.336h-87.648c-5.728 0-10.336-4.64-10.336-10.336 0-5.728 4.608-10.336 10.336-10.336zM183.68 190.944c0-8.341-6.762-15.104-15.104-15.104s-15.104 6.762-15.104 15.104c0 8.341 6.762 15.104 15.104 15.104s15.104-6.762 15.104-15.104zM233.92 190.944c0-8.341-6.762-15.104-15.104-15.104s-15.104 6.762-15.104 15.104c0 8.341 6.762 15.104 15.104 15.104s15.104-6.762 15.104-15.104zM284.192 190.944c0-8.341-6.762-15.104-15.104-15.104s-15.104 6.762-15.104 15.104c0 8.341 6.762 15.104 15.104 15.104s15.104-6.762 15.104-15.104z" />
<glyph unicode="&#xe606;" d="M358.4 116.48h133.12c11.264 0 20.48 9.184 20.48 20.512 0 11.296-9.184 20.48-20.48 20.48h-133.12v133.088h133.12c11.264 0 20.48 9.152 20.48 20.48 0 11.296-9.184 20.512-20.48 20.512h-133.12v46.048h-81.92c-74.336 0-136.32-52.768-150.528-122.88h-125.952v-61.44h125.984c14.208-70.112 76.192-122.88 150.528-122.88h81.92v46.080z" />
<glyph unicode="&#xe607;" d="M319.712 166.112h-40.768c-2.432 8.352-5.76 16.288-9.856 23.744l28.864 28.864c4.288 4.288 4.288 11.264 0 15.552l-31.136 31.136c-4.32 4.288-11.264 4.288-15.584 0l-28.864-28.896c-7.456 4.096-15.392 7.392-23.712 9.792v40.896c0 6.080-4.928 11.008-11.008 11.008h-44.032c-6.080 0-11.008-4.928-11.008-11.008v-40.992c-8.256-2.4-16.128-5.728-23.552-9.824l-29.024 29.024c-4.288 4.288-11.264 4.288-15.584 0l-31.104-31.136c-4.288-4.288-4.288-11.264 0-15.552l29.12-29.088c-4.064-7.392-7.328-15.264-9.728-23.52h-41.184c-6.080 0-11.008-4.928-11.008-11.008v-44.032c0-6.080 4.928-11.008 11.008-11.008h41.216c2.4-8.224 5.664-16.096 9.728-23.456l-29.184-29.152c-4.288-4.288-4.288-11.296 0-15.584l31.136-31.136c4.288-4.288 11.264-4.288 15.584 0l29.12 29.152c7.36-4.064 15.232-7.328 23.456-9.792v-41.12c0-6.048 4.928-10.976 11.008-10.976h44.032c6.080 0 11.008 4.928 11.008 11.040v41.024c8.288 2.4 16.16 5.664 23.584 9.728l28.992-28.992c4.32-4.288 11.264-4.288 15.584 0l31.136 31.136c4.288 4.288 4.288 11.264 0 15.584l-28.896 28.896c4.096 7.424 7.424 15.36 9.856 23.68h40.832c6.080 0 11.008 4.928 11.008 11.008v44.032c0 6.080-4.928 10.976-11.040 10.976zM165.568 81.76c-28.352 0-51.328 22.976-51.328 51.328s22.976 51.36 51.328 51.36c28.352 0 51.328-23.008 51.328-51.36s-22.976-51.328-51.328-51.328zM504.992 331.232l-29.44 12.224c0.768 6.752 0.736 13.472 0 20.096l29.472 12.192c4.384 1.824 6.464 6.848 4.672 11.232l-13.152 31.808c-1.824 4.384-6.848 6.464-11.232 4.672l-29.472-12.256c-4.16 5.184-8.896 9.952-14.176 14.176l12.256 29.504c1.824 4.384-0.256 9.408-4.64 11.232l-31.776 13.184c-4.384 1.824-9.408-0.256-11.232-4.64l-12.288-29.6c-6.688 0.736-13.376 0.704-19.936-0.032l-12.256 29.632c-1.824 4.384-6.848 6.464-11.232 4.672l-31.84-13.12c-4.384-1.792-6.464-6.848-4.672-11.232l12.288-29.728c-5.12-4.128-9.824-8.832-14.016-14.048l-29.728 12.32c-4.384 1.824-9.408-0.256-11.232-4.64l-13.184-31.776c-1.824-4.384 0.256-9.408 4.64-11.232l29.76-12.352c-0.736-6.656-0.736-13.312 0-19.84l-29.792-12.288c-4.384-1.792-6.464-6.848-4.672-11.232l13.152-31.808c1.824-4.384 6.848-6.464 11.232-4.672l29.76 12.32c4.096-5.152 8.8-9.856 13.984-14.080l-12.32-29.664c-1.824-4.416 0.256-9.44 4.64-11.264l31.776-13.184c4.384-1.824 9.408 0.256 11.232 4.672l12.288 29.6c6.688-0.736 13.376-0.768 19.936-0.064l12.256-29.6c1.824-4.384 6.848-6.464 11.232-4.672l31.808 13.152c4.384 1.824 6.464 6.848 4.672 11.232l-12.192 29.504c5.184 4.128 9.952 8.864 14.208 14.144l29.472-12.224c4.384-1.824 9.408 0.256 11.232 4.64l13.184 31.808c1.824 4.384-0.288 9.408-4.672 11.232zM420.896 338.208c-8.48-20.48-31.968-30.176-52.416-21.664-20.48 8.512-30.176 31.968-21.696 52.416s31.968 30.176 52.448 21.696c20.48-8.512 30.176-32 21.664-52.448z" />
<glyph unicode="&#xe608;" d="M326.496 224c0-39.235-31.805-71.040-71.040-71.040s-71.040 31.805-71.040 71.040c0 39.235 31.805 71.040 71.040 71.040 39.234 0 71.040-31.805 71.040-71.040zM255.488 480c-141.408 0-256.032-114.592-256.032-256 0-141.376 114.624-256 256.032-256 141.376 0 255.968 114.624 255.968 256 0 141.408-114.592 256-255.968 256zM255.456 116.192c-59.424 0-107.808 48.384-107.808 107.808 0 59.456 48.352 107.808 107.808 107.808s107.808-48.352 107.808-107.808c0-59.424-48.352-107.808-107.808-107.808z" />
<glyph unicode="&#xe609;" d="M304.16 465.088l-182.368-148.608h-92.384c-16.224 0-29.408-13.184-29.408-29.504v-125.984c0-16.32 13.184-29.504 29.408-29.504h92.512l182.24-148.608v482.208zM376 34.272c181.376 63.040 181.28 316.384 0 379.552-15.392 5.312-21.952-19.040-6.688-24.416 157.344-54.752 157.408-276.096 0-330.816-15.264-5.376-8.704-29.728 6.688-24.32zM376.928 126.784c74.816 45.888 74.752 148.544 0 194.464-13.92 8.544-26.496-13.28-12.736-21.76 58.592-36 58.592-115.040 0-151.008-13.76-8.448-1.184-30.24 12.736-21.696z" />
<glyph unicode="&#xe60a;" d="M255.488 334.944c87.040 0 164.96-39.328 217.28-101.056l38.688 32.736c-61.6 72.768-153.44 119.104-255.968 119.104-102.56 0-194.4-46.336-256.032-119.104l38.72-32.736c52.32 61.728 130.272 101.056 217.312 101.056zM255.488 238.944c57.728 0 109.408-26.080 144.096-67.008l38.688 32.736c-44.032 51.936-109.568 85.024-182.784 85.024s-138.816-33.088-182.816-85.024l38.72-32.736c34.656 40.896 86.336 67.008 144.096 67.008zM255.456 144.96c29.024 0 55.008-13.12 72.448-33.696l38.72 32.768c-26.752 31.584-66.624 51.68-111.168 51.68-44.512 0-84.384-20.096-111.136-51.68l38.688-32.768c17.472 20.576 43.456 33.696 72.448 33.696zM218.496 81.28l36.96-31.328 36.992 31.328c0 0-14.112 17.344-36.992 17.344s-36.96-17.344-36.96-17.344z" />
<glyph unicode="&#xe60b;" d="M255.744 77.248c-78.208-1.248-140.64 65.408-141.92 141.92-0.032 1.504 0.032 5.088 0.032 5.088h39.392l-76.896 73.728-76.896-73.728h37.92c-0.96-75.008 43.424-155.040 111.68-194.528 90.016-52.128 210.144-28 274.912 52.288 2.464 3.104 4.8 6.048 7.104 9.216l-68.288 36.32c-25.728-30.272-63.872-49.6-107.040-50.304zM255.2 370.752c78.176 1.248 140.608-65.408 141.888-141.888 0.032-1.536-0.032-5.088-0.032-5.088h-39.392l76.896-73.728 76.896 73.728h-37.952c0.96 75.008-43.392 155.040-111.68 194.528-90.016 52.096-210.144 27.968-274.912-52.288-2.496-3.104-4.8-6.080-7.104-9.216l68.288-36.32c25.76 30.24 63.872 49.536 107.104 50.272z" />
<glyph unicode="&#xe60c;" d="M256 462.016c-141.376 0-256-16.48-256-36.736v-112.896h512v112.896c0 20.288-114.656 36.736-256 36.736zM0 260.544h512v-111.36h-512v111.36zM0 97.344h512v-111.36h-512v111.36z" />
<glyph unicode="&#xe60d;" d="M511.872 415.072c-0.928 13.312-12.096 23.712-25.376 23.712h-460.96c-13.312 0-24.448-10.4-25.408-24.64l-0.128-311.488c0-14.048 11.456-25.536 25.536-25.536h163.68v-5.984c0-20.64-6.368-23.904-14.112-25.856-8.928-2.208-14.752-11.168-13.6-20.736 1.12-8.896 8.192-15.328 16.832-15.328h155.296c8.64 0 15.744 6.432 16.832 15.328 1.184 9.6-4.672 18.528-13.6 20.736-7.712 1.952-14.112 5.216-14.112 25.856v5.984h163.712c14.080 0 25.536 11.456 25.536 25.536l-0.128 312.416zM46.208 162.176v230.4h419.584v-230.4h-419.584zM390.72 329.408h-273.44c-11.104 0-20.096-8.992-20.096-20.096s8.992-20.096 20.096-20.096h273.472c11.104 0 20.096 8.992 20.096 20.096-0.032 11.104-8.992 20.096-20.128 20.096zM390.72 260.608h-273.44c-11.104 0-20.096-8.992-20.096-20.096s8.992-20.096 20.096-20.096h273.472c11.104 0 20.096 8.992 20.096 20.096-0.032 11.072-8.992 20.096-20.128 20.096z" />
<glyph unicode="&#xe60e;" d="M62.272 480v-512h387.424v512h-387.424zM302.304 115.072h-182.592v38.304h182.592v-38.304zM390.72 199.040h-271.008v38.272h270.976v-38.272zM390.72 282.976h-271.008v38.272h270.976v-38.272zM390.72 366.912h-271.008v38.272h270.976v-38.272z" />
<glyph unicode="&#xe60f;" d="M68.32 201.088v-220.96c0-6.688 5.6-12.128 12.48-12.128h350.304c6.944 0 12.544 5.44 12.544 12.128v220.96h-375.328zM322.144 96.352c0-3.008-2.368-5.44-5.408-5.44h-119.936c-2.976 0-5.408 2.432-5.408 5.44v54.336c0 2.976 2.432 5.408 5.408 5.408h15.84v-38.016c0-2.976 2.432-5.408 5.44-5.408h76.32c3.040 0 5.44 2.432 5.44 5.408v38.016h16.896c3.040 0 5.408-2.432 5.408-5.408v-54.336zM431.136 480h-350.336c-6.88 0-12.48-5.408-12.48-12.128v-210.048h375.36v210.048c0 6.72-5.632 12.128-12.544 12.128zM322.144 375.2c0-2.976-2.368-5.376-5.408-5.376h-119.936c-2.976 0-5.408 2.4-5.408 5.376v54.368c0 3.008 2.432 5.408 5.408 5.408h15.84v-38.016c0-3.040 2.432-5.44 5.44-5.44h76.32c3.040 0 5.44 2.4 5.44 5.44v38.016h16.896c3.040 0 5.408-2.4 5.408-5.408v-54.368z" />
<glyph unicode="&#xe610;" d="M506.272 59.872l-111.296 111.328c-3.52 3.456-9.216 3.456-12.704 0l-26.24-26.272 0.064-0.096-24.672-30.592c0 0-29.376 6.464-74.144 41.696 52.832 59.136 104.416 116.736 105.504 117.952 5.152 5.696 9.28 3.936 11.52 3.296 37.792-10.688 80.416-1.248 99.872 39.328 17.984 37.504 3.264 66.4-8.736 86.336-2.848 4.864-7.456 1.952-8.64-0.576-1.28-2.624-22.848-47.648-22.848-47.648-5.792-12.032-19.904-21.056-48.16-7.52-28.224 13.536-29.952 30.176-24.16 42.24 0 0 20.128 41.952 22.816 47.552 2.688 5.664-1.408 7.072-3.872 6.752-23.104-3.040-55.008-9.76-72.96-47.296-10.304-21.504-9.696-42.56-2.048-61.056 1.056-2.848 2.368-9.6-4.096-15.328-1.248-1.152-54.208-48.512-110.688-99.008-40.512 48.928-47.616 81.6-47.616 81.6l30.56 24.704 0.064-0.128 26.272 26.272c3.456 3.488 3.456 9.12 0 12.64l-111.36 111.296c-3.456 3.456-9.12 3.456-12.608 0l-26.24-26.24h0.064c-43.84-44.608-48.832-61.888-46.208-100.96 2.176-33.44 53.28-122.464 114.528-194.080-21.952-19.648-40.544-36.288-51.68-46.176 0 0 0-0.032 0.032-0.032-25.92-23.168-43.2-38.624-43.2-38.624-1.568-1.44-3.168-3.008-4.64-4.608-21.792-24.416-19.648-61.792 4.64-83.52 24.352-21.824 61.728-19.68 83.488 4.672 0 0 27.968 31.232 65.344 73.088v0c6.016 6.784 12.8 14.336 20.096 22.496 69.376-57.056 151.232-101.568 186.72-108.512 43.008-8.416 56.448 2.368 100.992 46.208l0.032-0.032 26.208 26.208c3.488 3.456 3.488 9.152 0 12.64z" />
<glyph unicode="&#xe611;" d="M0 382.144v-316.256h512v316.256h-512zM237.536 136.992h-171.392v174.016h171.392v-174.016zM441.344 136.992h-144v30.048h144v-30.048zM441.344 184.992h-144v30.016h144v-30.016zM441.344 232.992h-144v30.016h144v-30.016z" />
<glyph unicode="&#xe612;" d="M512.384 381.728l-238.848-137.92v137.92l-273.152-157.728 273.152-157.728v137.856l238.848-137.856z" />
<glyph unicode="&#xe613;" d="M0.384 66.272l238.816 137.92v-137.92l273.184 157.728-273.184 157.728v-137.856l-238.816 137.856z" />
<glyph unicode="&#xe614;" d="M0.384 480h512v-512h-512v512z" />
<glyph unicode="&#xe615;" d="M319.968 480h168.8v-512h-168.8v512zM23.968 480h168.8v-512h-168.8v512z" />
<glyph unicode="&#xe616;" d="M34.272 480l443.456-256.032-443.456-255.968z" />
<glyph unicode="&#xe617;" d="M366.176 124.8c-11.968 3.744-27.2 13.536-44.224 30.624-14.592 14.336-29.664 32.736-45.152 52.864-3.68-4.928-7.36-9.824-11.104-14.848-10.048-13.696-20.416-27.488-30.944-41.056 36.736-44.608 74.88-88.384 131.424-95.584v-52.096l145.824 84.192-145.824 84.16v-48.256zM123.136 293.12c14.56-14.304 29.664-32.736 45.152-52.864 3.776 5.088 7.52 10.048 11.296 15.2 10.080 13.536 20.256 27.264 30.72 40.736-39.168 47.52-79.744 94.688-142.72 96.96h-67.52v-67.552h67.552c12.608 0.512 32.448-9.376 55.52-32.48zM366.176 323.808v-48.896l145.824 84.192-145.824 84.16v-51.072c-36.768-4.224-66.112-26.016-91.68-51.008-42.368-42.112-79.424-99.712-116-145.44-36-47.072-72.16-75.2-90.944-72.768h-67.552v-67.552h67.552c42.176 0.544 74.88 24.448 103.072 51.968 42.336 42.176 79.424 99.68 115.936 145.472 29.824 38.88 59.52 64.416 79.616 70.944z" />
<glyph unicode="&#xe618;" d="M78.176 232.896c0 28.032 22.688 47.872 50.688 47.872h241.152v-38.368l96.48 80.64-96.48 83.744v-47.904h-241.152c-71.168-0.032-128.864-54.976-128.864-126.144 0-34.976 14.016-65.504 36.64-88.544l61.376 51.072c-12.032 9.088-19.84 21.312-19.84 37.632zM475.36 303.68l-61.376-51.296c12-9.056 19.84-20.96 19.84-37.28 0-28.032-22.688-47.904-50.656-47.904h-241.184v38.4l-96.48-80.672 96.48-83.712v47.904h241.152c71.168 0 128.864 54.944 128.864 126.112 0 34.976-13.984 65.44-36.64 88.448z" />
<glyph unicode="&#xe619;" d="M256 480c-141.376 0-256-114.624-256-256s114.624-256 256-256 256 114.624 256 256-114.624 256-256 256zM256 16c-114.88 0-208 93.12-208 208s93.12 208 208 208 208-93.12 208-208-93.12-208-208-208zM303.392 234.72c0-8.864 0.288-19.552 0.896-32.096l-72.64 138.72h-87.648v-234.72h64.32v106.336c0 8.8-0.448 20.384-1.344 34.592l73.056-140.896h87.968v234.688h-64.608v-106.624z" />
<glyph unicode="&#xe61a;" d="M0.384 84.832l255.968 278.304 256.032-278.304z" />
<glyph unicode="&#xe61b;" d="M117.248 480l278.272-255.968-278.272-256.032z" />
<glyph unicode="&#xe61c;" d="M512.384 363.136l-255.968-278.272-256.032 278.272z" />
<glyph unicode="&#xe61d;" d="M395.488-32l-278.24 255.968 278.24 256.032z" />
<glyph unicode="&#xe61e;" d="M417.792 220.896l-259.072 259.104-64.512-64.544 193.632-193.6-189.312-189.344 64.512-64.512 189.344 189.312 0.896-0.896z" />
<glyph unicode="&#xe61f;" d="M94.208 227.104l259.072-259.104 64.512 64.544-193.632 193.6 189.312 189.344-64.512 64.512-189.344-189.312-0.896 0.896z" />
<glyph unicode="&#xe620;" d="M408.064 465.088l-182.336-148.608h-92.384c-16.256 0-29.408-13.184-29.408-29.504v-125.984c0-16.288 13.184-29.472 29.408-29.472h92.512l182.24-148.608v482.176z" />
<glyph unicode="&#xe621;" d="M304.16 465.088l-182.368-148.608h-92.384c-16.224 0-29.408-13.184-29.408-29.504v-125.984c0-16.32 13.184-29.504 29.408-29.504h92.512l182.24-148.608v482.208zM376 34.272c181.376 63.040 181.28 316.384 0 379.552-15.392 5.312-21.952-19.040-6.688-24.416 157.344-54.752 157.408-276.096 0-330.816-15.264-5.376-8.704-29.728 6.688-24.32zM376.928 126.784c74.816 45.888 74.752 148.544 0 194.464-13.92 8.544-26.496-13.28-12.736-21.76 58.592-36 58.592-115.040 0-151.008-13.76-8.448-1.184-30.24 12.736-21.696z" />
<glyph unicode="&#xe622;" d="M512 287.008h-192.928v192.992h-126.144v-192.992h-192.928v-126.112h192.928v-192.896h126.144v192.896h192.928z" />
<glyph unicode="&#xe623;" d="M0 287.008h512v-126.080h-512v126.080z" />
<glyph unicode="&#xe624;" d="M433.824 466.016l-257.44-328.64-102.176 118.528-74.72-64.448 180.544-209.472 331.456 423.2z" />
<glyph unicode="&#xe625;" d="M512 224c0-141.385-114.615-256-256-256s-256 114.615-256 256c0 141.385 114.615 256 256 256s256-114.615 256-256z" />
<glyph unicode="&#xe626;" d="M511.104 428.192l-50.912 50.912-204.192-204.192-204.192 204.192-50.912-50.912 204.192-204.192-204.192-204.192 50.912-50.912 204.192 204.192 204.192-204.192 50.912 50.912-204.192 204.192z" />
<glyph unicode="&#xe627;" d="M416 247.136v104.864c0 70.592-57.44 128-128 128h-64c-70.56 0-128-57.408-128-128v-104.864c-19.072-11.104-32-31.52-32-55.136v-160c0-35.328 28.672-64 64-64h256c35.328 0 64 28.672 64 64v160c0 23.616-12.928 44.032-32 55.136zM352 256h-192v96c0 35.296 28.672 64 64 64h64c35.328 0 64-28.704 64-64v-96z" />
<glyph unicode="&#xe628;" d="M396.512 256c-35.008 0-236.512 0-236.512 0v96c0 35.296 28.672 64 64 64h64c35.328 0 64-28.704 64-64h64c0 70.592-57.44 128-128 128h-64c-70.56 0-128-57.408-128-128v-104.864c-19.072-11.104-32-31.52-32-55.136v-160c0-35.328 28.672-64 64-64h256c35.328 0 64 28.672 64 64v160c0 23.616-16.512 64-51.488 64z" />
<glyph unicode="&#xe629;" d="M128.832 224c0-35.576-28.84-64.416-64.416-64.416s-64.416 28.84-64.416 64.416c0 35.576 28.84 64.416 64.416 64.416s64.416-28.84 64.416-64.416zM320.448 224c0-35.576-28.84-64.416-64.416-64.416s-64.416 28.84-64.416 64.416c0 35.576 28.84 64.416 64.416 64.416s64.416-28.84 64.416-64.416zM512 224c0-35.576-28.84-64.416-64.416-64.416s-64.416 28.84-64.416 64.416c0 35.576 28.84 64.416 64.416 64.416s64.416-28.84 64.416-64.416z" />
<glyph unicode="&#xe62a;" d="M512 32.704l-173.696 173.6c13.632 25.312 21.408 54.304 21.408 85.088 0 99.328-80.48 179.904-179.84 179.904-99.296 0-179.904-80.608-179.904-179.904 0-99.328 80.608-179.904 179.904-179.904 39.808 0 76.48 13.056 106.24 35.008l169.888-169.824 56 56.032zM74.4 291.392c0 58.272 47.264 105.536 105.504 105.536 58.272 0 105.504-47.264 105.504-105.536s-47.232-105.504-105.504-105.504c-58.272 0-105.504 47.232-105.504 105.504z" />
<glyph unicode="&#xe62b;" d="M256 480c-141.376 0-256-114.624-256-256s114.624-256 256-256 256 114.624 256 256-114.624 256-256 256zM256 16c-114.88 0-208 93.12-208 208s93.12 208 208 208 208-93.12 208-208-93.12-208-208-208zM216.128 292.16h78.752v-228.16h-78.752v228.16zM255.808 384c-14.656 0-25.248-2.88-31.84-8.672-6.592-5.76-9.856-14.56-9.856-26.368 0-23.104 13.888-34.624 41.696-34.624 28.064 0 42.080 11.552 42.080 34.624 0 11.552-3.36 20.288-10.080 26.176-6.688 5.92-17.376 8.864-32 8.864z" />
<glyph unicode="&#xe62c;" d="M494.912 275.2h-63.232c-3.744 12.928-8.896 25.248-15.264 36.8l44.736 44.736c6.656 6.656 6.656 17.472 0.032 24.128l-48.288 48.288c-6.656 6.656-17.472 6.656-24.128 0l-44.768-44.8c-11.584 6.336-23.904 11.456-36.8 15.168v63.424c0 9.44-7.616 17.056-17.056 17.056h-68.288c-9.408 0-17.088-7.616-17.088-17.056v-63.584c-12.768-3.744-25.024-8.864-36.512-15.2l-44.992 44.992c-6.688 6.656-17.472 6.656-24.16 0l-48.256-48.288c-6.656-6.624-6.656-17.472 0-24.128l45.152-45.12c-6.272-11.424-11.36-23.648-15.072-36.416h-63.84c-9.44 0-17.088-7.648-17.088-17.088v-68.256c0-9.408 7.648-17.056 17.088-17.056h63.936c3.712-12.736 8.8-24.928 15.072-36.352l-45.248-45.184c-6.656-6.656-6.656-17.504 0-24.16l48.256-48.288c6.656-6.656 17.472-6.656 24.16 0l45.152 45.184c11.424-6.304 23.616-11.392 36.352-15.168v-63.776c0-9.44 7.648-17.056 17.088-17.056h68.288c9.408 0 17.056 7.616 17.056 17.088v63.616c12.832 3.712 25.088 8.768 36.576 15.072l44.96-44.928c6.656-6.656 17.472-6.656 24.128 0l48.288 48.288c6.656 6.656 6.656 17.472-0.032 24.16l-44.8 44.8c6.368 11.52 11.488 23.808 15.264 36.736h63.328c9.44-0.032 17.088 7.616 17.088 17.056v68.224c0 9.44-7.648 17.088-17.088 17.088zM255.872 144.416c-44 0-79.616 35.616-79.616 79.584s35.616 79.616 79.616 79.616c43.968 0 79.616-35.648 79.616-79.616s-35.648-79.584-79.616-79.584z" />
<glyph unicode="&#xe62d;" d="M256 480c-141.376 0-256-114.624-256-256s114.624-256 256-256 256 114.624 256 256-114.624 256-256 256zM256 16c-114.88 0-208 93.12-208 208s93.12 208 208 208 208-93.12 208-208-93.12-208-208-208zM256 384.064c-22.752 0-41.248-18.528-41.248-41.248 0-12.416 14.912-181.984 14.912-181.984 0-14.496 11.808-26.304 26.336-26.304 14.496 0 26.336 11.808 26.336 26.304 0 0 14.912 169.6 14.912 181.984 0 22.752-18.496 41.248-41.248 41.248zM281.856 89.984c0-14.315-11.605-25.92-25.92-25.92s-25.92 11.605-25.92 25.92c0 14.315 11.605 25.92 25.92 25.92s25.92-11.605 25.92-25.92z" />
<glyph unicode="&#xe62e;" d="M290.528 372.736l-58.048 64.608h-232.448v-426.656h512v362.048h-221.504z" />
<glyph unicode="&#xe62f;" d="M366.976 320.992v109.184c-63.52 6.976-102.976 19.392-171.456 49.824 0-23.68-0.128-362.080-0.128-362.080-19.648 7.84-43.616 9.696-67.904 3.84-52.48-12.8-86.816-56.768-76.704-98.272 10.080-41.504 60.736-64.736 113.184-52 49.408 11.968 82.784 51.776 77.984 91.008 0 0 0 273.152 0 286.688s9.632-23.104 125.024-28.192zM270.976 284.672h192v-32h-192v32zM270.976 220.672h192v-32h-192v32zM270.976 156.672h192v-32h-192v32z" />
<glyph unicode="&#xe630;" d="M164.928 421.984l-0.096-321.056c-17.408 6.944-38.688 8.608-60.224 3.392-46.528-11.328-76.992-50.336-68.032-87.136 8.928-36.8 53.856-57.408 100.352-46.112 43.808 10.624 73.408 45.92 69.152 80.704v239.872c0 0 99.328 34.784 228.224 43.456v-178.4c-17.344 6.592-38.144 8.128-59.36 3.008-46.464-11.328-76.896-50.304-67.936-87.040 8.928-36.896 53.76-57.472 100.352-46.176 40.608 9.792 68.96 40.8 69.536 72.96h0.064c0 0 0 314.944 0 380.192-171.52 5.664-312.032-57.664-312.032-57.664z" />
<glyph unicode="&#xe631;" d="M0.032 480v-512h512v512h-512zM390.016 148.448h-0.032c-0.352-19.488-17.536-38.304-42.176-44.256-28.256-6.848-55.424 5.632-60.864 28-5.44 22.272 13.024 45.888 41.216 52.768 12.864 3.136 25.472 2.176 36-1.824v108.224c-78.176-5.28-138.4-26.368-138.4-26.368v-145.472c2.592-21.088-15.36-42.496-41.952-48.928-28.192-6.848-55.424 5.664-60.864 27.968s13.024 45.952 41.248 52.832c13.056 3.168 25.952 2.144 36.512-2.048l0.064 194.688c0 0 85.216 38.4 189.248 34.976 0-39.584 0-230.56 0-230.56z" />
<glyph unicode="&#xe632;" d="M0.032 470.176h512v-75.584h-512v75.584zM0.032 331.296h512v-75.584h-512v75.584zM0.032 192.32h512v-75.584h-512v75.584zM0.032 53.408h512v-75.584h-512v75.584z" />
<glyph unicode="&#xe633;" d="M419.872 350.976h51.232v-256.032h-51.232v256.032zM491.52 320.224h20.512v-204.768h-20.512v204.768zM40.96 350.976h51.232v-256.032h-51.232v256.032zM0.032 320.224h20.512v-204.768h-20.512v204.768zM112.704 367.392h286.688v-286.752h-286.688v286.752z" />
<glyph unicode="&#xe634;" d="M0.032 480h214.528v-214.528h-214.528v214.528zM297.504 480h214.528v-214.528h-214.528v214.528zM0.032 182.528h214.528v-214.528h-214.528v214.528zM297.504 182.528h214.528v-214.528h-214.528v214.528z" />
<glyph unicode="&#xe635;" d="M256 480c-141.385 0-256-114.615-256-256s114.615-256 256-256 256 114.615 256 256-114.615 256-256 256zM256 16c-114.875 0-208 93.125-208 208s93.125 208 208 208 208-93.125 208-208-93.125-208-208-208zM304 272l-144 80h-32v-32l80-144 144-80h32v32l-80 144zM256 192c-17.673 0-32 14.327-32 32s14.327 32 32 32c17.673 0 32-14.327 32-32s-14.327-32-32-32z" />
<glyph unicode="&#xe636;" d="M0 96h512v-64h-512zM256 416l256-256h-512z" />
<glyph unicode="&#xe637;" d="M224 192l-32 32-96-96 96-96 32 32-64 64zM288 64l32-32 96 96-96 96-32-32 64-64zM451.716 380.285l-71.432 71.431c-15.556 15.556-46.284 28.284-68.284 28.284h-240c-22 0-40-18-40-40v-432c0-22 18-40 40-40h368c22 0 40 18 40 40v304c0 22-12.728 52.729-28.284 68.285zM429.089 357.657c1.565-1.565 3.125-3.487 4.64-5.657h-81.729v81.728c2.17-1.515 4.092-3.075 5.657-4.64l71.432-71.431zM448 8c0-4.336-3.664-8-8-8h-368c-4.336 0-8 3.664-8 8v432c0 4.336 3.664 8 8 8h240c2.416 0 5.127-0.305 8-0.852v-127.148h127.148c0.547-2.873 0.852-5.583 0.852-8v-304z" />
<glyph unicode="&#xe638;" d="M192 174.277v57.113c0 7.564 3.348 14.718 9.427 20.143 6.080 5.424 14.096 8.413 22.573 8.413v28.555c-35.2 0-64-25.7-64-57.111v-42.833c0-7.886-7.164-14.279-16-14.279h-16v-28.555h16c8.837 0 16-6.395 16-14.279v-42.838c0-31.407 28.8-57.107 64-57.107v28.556c-8.477 0-16.494 2.988-22.573 8.413s-9.427 12.577-9.427 20.139v57.117c0 7.885-7.164 14.277-16 14.277 8.837-0.001 16 6.394 16 14.276zM320 145.723v-57.117c0-7.562-3.348-14.713-9.427-20.139s-14.095-8.413-22.573-8.413v-28.556c35.201 0 64 25.7 64 57.107v42.838c0 7.886 7.164 14.279 16 14.279h16v28.555h-16c-8.836 0-16 6.395-16 14.279v42.834c0 31.412-28.799 57.111-64 57.111v-28.555c8.479 0 16.494-2.989 22.573-8.415 6.080-5.424 9.427-12.578 9.427-20.142v-57.114c0-7.883 7.164-14.276 16-14.276-8.836 0.001-16-6.394-16-14.276zM451.716 380.285l-71.432 71.431c-15.556 15.556-46.284 28.284-68.284 28.284h-240c-22 0-40-18-40-40v-432c0-22 18-40 40-40h368c22 0 40 18 40 40v304c0 22-12.728 52.729-28.284 68.285zM429.089 357.657c1.565-1.565 3.125-3.487 4.64-5.657h-81.729v81.728c2.17-1.515 4.092-3.075 5.657-4.64l71.432-71.431zM448 8c0-4.336-3.664-8-8-8h-368c-4.336 0-8 3.664-8 8v432c0 4.336 3.664 8 8 8h240c2.416 0 5.127-0.305 8-0.852v-127.148h127.148c0.547-2.873 0.852-5.583 0.852-8v-304z" />
</font>
</defs>
</svg>
