<?xml version="1.0" standalone="no"?>
<!DOCTYPE svg PUBLIC "-//W3C//DTD SVG 1.1//EN" "http://www.w3.org/Graphics/SVG/1.1/DTD/svg11.dtd" >
<svg xmlns="http://www.w3.org/2000/svg">
<metadata>
This is a custom SVG font generated by IcoMoon.
<iconset grid="16"></iconset>
</metadata>
<defs>
<font id="bryston" horiz-adv-x="512" >
<font-face units-per-em="512" ascent="480" descent="-32" />
<missing-glyph horiz-adv-x="512" />
<glyph class="hidden" unicode="&#xf000;" d="M0,480L 512 -32L0 -32 z" horiz-adv-x="0" />
<glyph unicode="&#x21;" d="M 217.376,224A42.624,42.624 180 1 1 302.624,224A42.624,42.624 180 1 1 217.376,224zM 260,377.6C 175.168,377.6, 106.4,308.832, 106.4,224c0-84.8, 68.768-153.632, 153.632-153.632
		c 84.832,0, 153.568,68.8, 153.568,153.632C 413.6,308.832, 344.832,377.6, 260,377.6z M 260,159.328C 224.32,159.328, 195.328,188.32, 195.328,224
		S 224.32,288.672, 260,288.672S 324.672,259.68, 324.672,224S 295.68,159.328, 260,159.328zM 464,480l-416,0 C 21.472,480,0,458.496,0,432l0-416 C0-10.496, 21.472-32, 48-32l 416,0 
		c 26.528,0, 48,21.504, 48,48l0,416 C 512,458.496, 490.528,480, 464,480z M 450.56,78.048c0-26.88-21.792-48.64-48.64-48.64L 110.080,29.408 
		c-26.848,0-48.64,21.76-48.64,48.64L 61.44,369.952 c0,26.848, 21.792,48.64, 48.64,48.64l 291.84,0 c 26.848,0, 48.64-21.792, 48.64-48.64L 450.56,78.048 z" data-tags="disk_sata" />
<glyph unicode="&#x22;" d="M 228,480L 48,480 C 21.472,480,0,458.496,0,432L0,256 l 61.44,0 L 61.44,369.952 
			c0,26.848, 21.792,48.64, 48.64,48.64l 117.92,0 L 228,480 zM 464,480L 292,480 l0-61.44 l 109.952,0 c 26.848,0, 48.64-21.792, 48.64-48.64L 450.592,256 L 512,256 L 512,432 
			C 512,458.496, 490.528,480, 464,480zM 228,29.44L 110.080,29.44 c-26.848,0-48.64,21.76-48.64,48.64L 61.44,192 L0,192 l0-176 
			C0-10.496, 21.472-32, 48-32l 180,0 L 228,29.44 zM 450.56,192l0-113.952 c0-26.88-21.792-48.64-48.64-48.64L 292,29.408 L 292-32 L 464-32 
			c 26.528,0, 48,21.504, 48,48L 512,192 L 450.56,192 zM 292,373.92l0-93.952 C 301.888,274.176, 310.144,265.984, 315.872,256l 94.272,0 C 397.632,315.136, 351.040,361.312, 292,373.92zM 228,373.888C 168.928,361.28, 122.368,315.104, 109.824,256l 94.304,0 c 5.728,9.952, 13.984,18.176, 23.872,23.936L 228,373.888 zM 228,168.064C 218.112,173.824, 209.856,182.048, 204.128,192L 109.856,192 c 12.544-59.072, 59.104-105.312, 118.144-117.92L 228,168.064 zM 315.872,192C 310.144,182.016, 301.888,173.824, 292,168.032l0-93.984 c 59.072,12.608, 105.632,58.848, 118.176,117.952L 315.872,192 z" data-tags="disk_partition" />
<glyph unicode="&#x23;" d="M 256.032,320.8c 80.8,0, 153.184-36.544, 201.728-93.856L 512,272.8c-61.664,72.672-153.44,119.040-255.968,119.040
		c-102.624,0-194.432-46.336-256.032-119.040l 54.176-45.856C 102.752,284.288, 175.136,320.8, 256.032,320.8zM 255.968,189.152c 40.672,0, 77.056-18.304, 101.472-47.168l 54.208,45.888c-37.472,44.224-93.28,72.384-155.68,72.384
		c-62.304,0-118.144-28.16-155.616-72.384l 54.208-45.888C 178.944,170.848, 215.36,189.152, 255.968,189.152zM 204.192,100l 51.776-43.808l 51.84,43.808c0,0-19.744,24.32-51.84,24.32C 223.904,124.32, 204.192,100, 204.192,100z" data-tags="disk_network" />
<glyph unicode="&#x24;" d="M 331.136,276.96L 104.032,276.96 c-23.968,0-43.456-19.488-43.456-43.456l0-166.528 c0-23.968, 19.488-43.456, 43.456-43.456l 227.104,0 
		c 23.968,0, 43.456,19.488, 43.456,43.456L 374.592,233.504 C 374.592,257.472, 355.104,276.96, 331.136,276.96z M 348.224,66.976c0-9.44-7.648-17.088-17.088-17.088
		L 104.032,49.888 c-9.408,0-17.088,7.648-17.088,17.088L 86.944,233.504 c0,9.408, 7.68,17.088, 17.088,17.088l 227.104,0 c 9.44,0, 17.088-7.68, 17.088-17.088L 348.224,66.976 zM 397.888,97.248A30.272,30.272 180 1 1 458.432,97.24799999999999A30.272,30.272 180 1 1 397.888,97.24799999999999zM 397.888,203.232A30.272,30.272 180 1 1 458.432,203.23200000000003A30.272,30.272 180 1 1 397.888,203.23200000000003zM 453.28,332.832L 299.904,332.832 l 106.208,112.736c 6.016,6.816, 6.016,17.888,0,24.736c-6.016,6.784-15.84,6.784-21.856,0L 256.192,332.832L 248.928,332.832 
		l-70.080,79.36c-6.016,6.816-15.84,6.816-21.888,0c-6.016-6.848-6.016-17.92,0-24.736l 48.288-54.624L 58.72,332.832 C 26.336,332.832,0,306.496,0,274.112
		l0-242.816 c0-32.384, 26.336-58.72, 58.72-58.72l 394.56,0 c 32.384,0, 58.72,26.336, 58.72,58.72L 512,274.112 C 512,306.496, 485.664,332.832, 453.28,332.832z
		 M 485.632,31.328c0-17.856-14.496-32.352-32.352-32.352L 58.72-1.024 c-17.856,0-32.352,14.496-32.352,32.352L 26.368,274.112 c0,17.856, 14.496,32.32, 32.352,32.32
		l 394.56,0 c 17.856,0, 32.352-14.464, 32.352-32.32L 485.632,31.328 z" data-tags="nav_tvmode" />
<glyph unicode="&#x25;" d="M 175.488,86.528A30.272,30.272 180 1 1 236.032,86.52800000000002A30.272,30.272 180 1 1 175.488,86.52800000000002zM 123.712,148.096A30.272,30.272 180 1 1 184.256,148.096A30.272,30.272 180 1 1 123.712,148.096zM 69.472,86.528A30.272,30.272 180 1 1 130.016,86.52800000000002A30.272,30.272 180 1 1 69.472,86.52800000000002zM 453.28,348.288L 178.464,348.288 l 197.344,60.768c 5.536-5.92, 13.344-9.664, 22.080-9.664c 16.704,0, 30.272,13.568, 30.272,30.272
		s-13.568,30.272-30.272,30.272c-15.168,0-27.584-11.168-29.856-25.664L 93.088,349.6C 92.192,349.312, 91.456,348.736, 90.688,348.288l-32,0 
		C 26.304,348.288,0,321.984,0,289.6l0-242.848 c0-32.384, 26.304-58.72, 58.688-58.72l 394.592,0 c 32.384,0, 58.72,26.336, 58.72,58.72L 512,289.6 
		C 512,321.984, 485.664,348.288, 453.28,348.288z M 485.632,46.752c0-17.824-14.496-32.352-32.352-32.352L 58.688,14.4 c-17.824,0-32.32,14.528-32.32,32.352L 26.368,289.6 
		c0,17.824, 14.496,32.32, 32.32,32.32l 394.592,0 c 17.856,0, 32.352-14.496, 32.352-32.32L 485.632,46.752 zM 358.816,251.584c-52.224,0-94.688-42.464-94.688-94.688c0-52.256, 42.464-94.72, 94.688-94.72s 94.72,42.464, 94.72,94.72
		C 453.536,209.12, 411.040,251.584, 358.816,251.584z M 358.816,88.576c-37.696,0-68.32,30.656-68.32,68.352c0,37.664, 30.624,68.32, 68.32,68.32
		s 68.352-30.656, 68.352-68.32C 427.168,119.232, 396.512,88.576, 358.816,88.576zM 227.232,261.856L 95.84,261.856 c-9.728,0-17.6-7.84-17.6-17.568s 7.872-17.6, 17.6-17.6l 131.36,0 c 9.728,0, 17.6,7.872, 17.6,17.6
		S 236.928,261.856, 227.232,261.856z" data-tags="nav_bradio" />
<glyph unicode="&#x26;" d="M 484.128,297.504L 27.872,297.504 C 12.512,297.504,0,284.992,0,269.632l0-91.264 c0-15.36, 12.512-27.872, 27.872-27.872l 456.256,0 
		c 15.36,0, 27.872,12.512, 27.872,27.872L 512,269.632 C 512,284.992, 499.488,297.504, 484.128,297.504z M 27.872,282.304l 456.256,0 c 6.976,0, 12.672-5.696, 12.672-12.672
		l0-38.016 L 125.696,231.616 c-3.584,19.968-21.056,35.2-42.048,35.2c-20.96,0-38.432-15.232-42.016-35.2L 15.232,231.616 L 15.232,269.632 C 15.232,276.64, 20.864,282.304, 27.872,282.304z
		 M 111.2,224c0-15.2-12.352-27.552-27.552-27.552c-15.2,0-27.52,12.384-27.52,27.552s 12.352,27.552, 27.52,27.552
		C 98.848,251.552, 111.2,239.2, 111.2,224z M 484.128,165.728L 27.872,165.728 c-7.008,0-12.672,5.664-12.672,12.672L 15.2,216.416 L 41.6,216.416 
		c 3.584-19.968, 21.056-35.2, 42.016-35.2c 20.992,0, 38.464,15.232, 42.048,35.2l 371.104,0 l0-38.016 C 496.768,171.36, 491.104,165.728, 484.128,165.728zM 381.024,246.272l 87.648,0 c 5.728,0, 10.368,4.64, 10.368,10.336s-4.672,10.336-10.368,10.336l-87.648,0 c-5.728,0-10.336-4.64-10.336-10.336
		S 375.328,246.272, 381.024,246.272zM 153.472,190.944A15.104,15.104 180 1 1 183.68,190.94400000000002A15.104,15.104 180 1 1 153.472,190.94400000000002zM 203.712,190.944A15.104,15.104 180 1 1 233.92,190.94400000000002A15.104,15.104 180 1 1 203.712,190.94400000000002zM 253.984,190.944A15.104,15.104 180 1 1 284.192,190.94400000000002A15.104,15.104 180 1 1 253.984,190.94400000000002z" data-tags="nav_vfp" />
<glyph unicode="&#x27;" d="M 358.4,116.48l 133.12,0 c 11.296,0, 20.48,9.184, 20.48,20.512s-9.184,20.48-20.48,20.48L 358.4,157.472 L 358.4,290.56 l 133.12,0 
	c 11.296,0, 20.48,9.152, 20.48,20.48S 502.816,331.52, 491.52,331.52L 358.4,331.52 L 358.4,377.6 l-81.92,0 c-74.336,0-136.32-52.768-150.528-122.88L0,254.72 l0-61.44 l 125.984,0 
	c 14.208-70.112, 76.192-122.88, 150.528-122.88l 81.92,0 L 358.432,116.48 z" data-tags="nav_connected" />
<glyph unicode="&#x28;" d="M 494.912,275.2L 431.68,275.2 c-3.744,12.928-8.896,25.248-15.296,36.8l 44.736,44.736c 6.656,6.656, 6.656,17.472,0,24.128
	l-48.288,48.288c-6.656,6.656-17.472,6.656-24.128,0l-44.768-44.8C 332.416,390.688, 320.096,395.808, 307.2,399.52L 307.2,462.944 C 307.2,472.384, 299.584,480, 290.144,480
	L 221.856,480 C 212.448,480, 204.768,472.384, 204.768,462.944L 204.768,399.36 C 192,395.616, 179.744,390.496, 168.256,384.16L 123.264,429.152c-6.656,6.656-17.472,6.656-24.16,0
	L 50.848,380.864c-6.656-6.624-6.656-17.472,0-24.128L 96,311.616C 89.728,300.192, 84.64,287.968, 80.928,275.2L 17.088,275.2 C 7.648,275.2,0,267.552,0,258.112l0-68.256 
	C0,180.448, 7.648,172.8, 17.088,172.8l 63.936,0 c 3.712-12.736, 8.8-24.928, 15.072-36.352l-45.248-45.184c-6.656-6.656-6.656-17.504,0-24.16
	l 48.256-48.288c 6.656-6.656, 17.472-6.656, 24.16,0l 45.152,45.184c 11.424-6.304, 23.616-11.36, 36.352-15.168l0-63.776 
	C 204.768-24.384, 212.416-32, 221.856-32l 68.288,0 C 299.552-32, 307.2-24.384, 307.2-14.912l0,63.616 c 12.832,3.712, 25.088,8.768, 36.576,15.072l 44.96-44.928
	c 6.656-6.656, 17.472-6.656, 24.128,0l 48.288,48.288c 6.656,6.656, 6.656,17.472,0,24.16l-44.8,44.8c 6.368,11.52, 11.488,23.808, 15.264,36.704l 63.328,0 
	C 504.352,172.8, 512,180.448, 512,189.888L 512,258.112 C 512,267.552, 504.352,275.2, 494.912,275.2z M 255.872,144.416c-44,0-79.616,35.616-79.616,79.584
	s 35.616,79.616, 79.616,79.616c 43.968,0, 79.616-35.648, 79.616-79.616S 299.84,144.416, 255.872,144.416z" data-tags="settings_system" />
<glyph unicode="&#x29;" d="M 184.96,224A71.040,71.040 180 1 1 327.040,224A71.040,71.040 180 1 1 184.96,224zM 256.032,480C 114.656,480,0,365.408,0,224c0-141.376, 114.656-256, 256.032-256C 397.408-32, 512,82.624, 512,224C 512,365.408, 397.408,480, 256.032,480z M 256,116.192
		c-59.424,0-107.808,48.384-107.808,107.808c0,59.456, 48.352,107.808, 107.808,107.808c 59.456,0, 107.808-48.352, 107.808-107.808
		C 363.808,164.576, 315.456,116.192, 256,116.192z" data-tags="settings_disk-info" />
<glyph unicode="&#x30;" d="M 419.872,350.976L 471.072,350.976L 471.072,94.976L 419.872,94.976zM 491.52,320.256L 512,320.256L 512,115.456L 491.52,115.456zM 40.96,350.976L 92.16,350.976L 92.16,94.976L 40.96,94.976zM0,320.256L 20.48,320.256L 20.48,115.456L0,115.456zM 112.672,80.64l 286.688,0 L 399.36,367.36 L 112.672,367.36 L 112.672,80.64 z M 201.472,185.184c 6.976,1.728, 13.888,1.184, 19.52-1.088l 0.032,104.096
			c0,0, 45.536,20.512, 101.152,18.656c0-21.12,0-123.232,0-123.232l0,0c-0.192-10.432-9.376-20.48-22.56-23.648
			c-15.072-3.648-29.632,3.008-32.544,14.976C 264.16,186.88, 274.048,199.456, 289.12,203.168C 296,204.8, 302.72,204.352, 308.352,202.176L 308.352,260 
			C 266.592,257.216, 234.368,245.952, 234.368,245.952l0-77.76 c 1.376-11.328-8.192-22.752-22.4-26.176c-15.072-3.648-29.632,3.040-32.544,14.976
			C 176.512,168.896, 186.368,181.536, 201.472,185.184z" data-tags="settings_album-art-db" />
<glyph unicode="&#x31;" d="M 256.032,334.944c 87.040,0, 164.96-39.328, 217.28-101.056L 512,266.624c-61.6,72.736-153.44,119.104-255.968,119.104
			C 153.472,385.728, 61.632,339.36,0,266.624l 38.72-32.736C 91.040,295.616, 168.992,334.944, 256.032,334.944zM 256.032,238.944c 57.728,0, 109.408-26.080, 144.096-67.008l 38.688,32.704c-44.032,51.936-109.568,85.024-182.784,85.024S 117.216,256.608, 73.216,204.672
			l 38.72-32.704C 146.592,212.832, 198.272,238.944, 256.032,238.944zM 256,144.96c 29.024,0, 55.008-13.12, 72.448-33.696l 38.72,32.736C 340.416,175.616, 300.544,195.712, 256,195.712c-44.512,0-84.384-20.096-111.136-51.68
			l 38.688-32.736C 201.024,131.84, 227.008,144.96, 256,144.96zM 219.040,81.28L 256,49.984l 36.992,31.328c0,0-14.080,17.344-36.992,17.344C 233.12,98.624, 219.040,81.28, 219.040,81.28z" data-tags="settings_network-interfaces" />
<glyph unicode="&#x32;" d="M 256.288,77.248c-78.208-1.248-140.672,65.408-141.92,141.92C 114.336,220.672, 114.4,224.256, 114.4,224.256l 39.392,0 L 76.896,297.984L0,224.256l 37.952,0 
		c-0.96-75.008, 43.392-155.040, 111.68-194.528c 90.016-52.128, 210.144-28, 274.912,52.288c 2.464,3.104, 4.8,6.048, 7.104,9.216l-68.288,36.32
		C 337.6,97.28, 299.456,77.984, 256.288,77.248zM 255.744,370.752c 78.176,1.248, 140.64-65.408, 141.888-141.92c 0.032-1.536-0.032-5.088-0.032-5.088l-39.392,0 l 76.896-73.728L 512,223.744
		l-37.952,0 c 0.96,75.008-43.392,155.040-111.68,194.528C 272.352,470.4, 152.224,446.272, 87.456,366.016c-2.496-3.104-4.8-6.048-7.104-9.216l 68.288-36.32
		C 174.4,350.72, 212.544,370.016, 255.744,370.752z" data-tags="settings_update-firmware" />
<glyph unicode="&#x33;" d="M 256,462.016c-141.376,0-256-16.48-256-36.736l0-56.032 L0,349.12 l0-36.736 l 512,0 L 512,349.12 L 512,369.248 L 512,425.28 C 512,445.568, 397.344,462.016, 256,462.016zM0,260.544L 512,260.544L 512,149.184L0,149.184zM0,97.344L 512,97.344L 512-14.016L0-14.016z" data-tags="settings_mpd" />
<glyph unicode="&#x34;" d="M 511.872,415.072c-0.928,13.312-12.096,23.712-25.376,23.712L 25.536,438.784 c-13.312,0-24.448-10.4-25.408-24.672L0,102.656
		c0-14.048, 11.456-25.536, 25.536-25.536l 163.68,0 l0-5.984 c0-20.64-6.368-23.904-14.112-25.856c-8.928-2.208-14.752-11.168-13.6-20.736
		c 1.12-8.896, 8.192-15.328, 16.832-15.328l 155.296,0 c 8.672,0, 15.744,6.432, 16.832,15.328c 1.184,9.6-4.672,18.528-13.6,20.736
		c-7.712,1.952-14.080,5.216-14.080,25.856L 322.784,77.12 l 163.712,0 c 14.080,0, 25.536,11.456, 25.536,25.536L 511.872,415.072z M 46.208,162.144l0,230.4 l 419.584,0 l0-230.4 
		L 46.208,162.144 zM 390.72,329.408L 117.28,329.408 c-11.104,0-20.096-8.992-20.096-20.096s 8.992-20.096, 20.096-20.096l 273.472,0 c 11.104,0, 20.096,8.992, 20.096,20.096
		S 401.856,329.408, 390.72,329.408zM 390.72,260.608L 117.28,260.608 c-11.104,0-20.096-8.992-20.096-20.096s 8.992-20.096, 20.096-20.096l 273.472,0 c 11.104,0, 20.096,8.992, 20.096,20.096
		S 401.856,260.608, 390.72,260.608z" data-tags="settings_system-log" />
<glyph unicode="&#x35;" d="M 62.272,480l0-512 l 263.584,0 l 6.112,0 l 117.728,0 l0,117.792 l0,24.16 L 449.696,480 L 62.272,480 z M 302.304,115.072L 119.712,115.072 l0,38.304 l 182.592,0 L 302.304,115.072 z
	 M 390.688,199.040L 119.712,199.040 L 119.712,237.312 l 270.976,0 L 390.688,199.040 z M 390.688,282.976L 119.712,282.976 L 119.712,321.248 l 270.976,0 L 390.688,282.976 z M 390.688,366.912L 119.712,366.912 L 119.712,405.184 l 270.976,0 L 390.688,366.912 z" data-tags="settings_startup-script" />
<glyph unicode="&#x36;" d="M 68.32,201.088l0-220.96 C 68.32-26.56, 73.92-32, 80.8-32l 350.304,0 c 6.944,0, 12.576,5.44, 12.576,12.128L 443.68,201.088 L 68.32,201.088 z M 322.144,96.352
		c0-3.008-2.368-5.44-5.408-5.44L 196.8,90.912 c-2.976,0-5.408,2.432-5.408,5.44l0,54.336 c0,2.976, 2.432,5.408, 5.408,5.408l 15.84,0 l0-38.016 
		c0-2.976, 2.432-5.408, 5.44-5.408L 294.4,112.672 c 3.040,0, 5.44,2.432, 5.44,5.408l0,38.016 l 16.896,0 c 3.040,0, 5.408-2.432, 5.408-5.408L 322.144,96.352 zM 431.136,480L 80.8,480 C 73.92,480, 68.32,474.592, 68.32,467.872l0-210.048 l 375.36,0 L 443.68,467.872 C 443.68,474.592, 438.048,480, 431.136,480z M 322.144,375.2
		c0-2.976-2.368-5.376-5.408-5.376L 196.8,369.824 c-2.976,0-5.408,2.4-5.408,5.376L 191.392,429.568 c0,3.008, 2.432,5.408, 5.408,5.408l 15.84,0 l0-38.016 
		c0-3.040, 2.432-5.44, 5.44-5.44L 294.4,391.52 c 3.040,0, 5.44,2.4, 5.44,5.44L 299.84,434.976 l 16.896,0 c 3.040,0, 5.408-2.4, 5.408-5.408L 322.144,375.2 z" data-tags="settings_nas-setup" />
<glyph unicode="&#x37;" d="M 506.272,59.872l-111.328,111.328c-3.52,3.456-9.216,3.456-12.672,0l-26.24-26.272l 0.064-0.096l-24.672-30.592
	c0,0-29.376,6.464-74.144,41.696c 52.832,59.136, 104.416,116.736, 105.504,117.952c 5.152,5.696, 9.28,3.936, 11.52,3.328
	c 37.792-10.688, 80.416-1.248, 99.872,39.328c 17.984,37.504, 3.296,66.4-8.704,86.336c-2.848,4.864-7.456,1.984-8.672-0.576
	c-1.28-2.624-22.848-47.648-22.848-47.648c-5.792-12.032-19.904-21.056-48.16-7.52c-28.224,13.536-29.952,30.176-24.16,42.24
	c0,0, 20.128,41.984, 22.816,47.552c 2.688,5.664-1.408,7.072-3.872,6.752c-23.104-3.040-55.008-9.76-72.96-47.296
	C 297.312,374.848, 297.952,353.792, 305.568,335.296c 1.056-2.848, 2.368-9.6-4.096-15.328C 300.224,318.816, 247.264,271.424, 190.784,220.96
	c-40.512,48.928-47.616,81.6-47.616,81.6l 30.56,24.704l 0.064-0.128l 0.896,0.896l 25.376,25.376c 3.456,3.488, 3.456,9.12,0,12.64L 88.704,477.376
	c-3.456,3.456-9.12,3.456-12.608,0l-26.24-26.24L 49.92,451.136 c-43.84-44.608-48.832-61.888-46.208-100.96c 2.176-33.44, 53.28-122.464, 114.528-194.080
	c-21.984-19.648-40.576-36.288-51.68-46.176c0,0,0-0.032, 0.032-0.032c-25.92-23.168-43.2-38.624-43.2-38.624
	c-1.568-1.44-3.168-3.008-4.672-4.64c-21.792-24.416-19.648-61.792, 4.672-83.52c 24.352-21.824, 61.728-19.68, 83.488,4.672
	c0,0, 27.968,31.232, 65.344,73.088l0,0c 6.016,6.784, 12.8,14.336, 20.096,22.496c 69.376-57.056, 151.264-101.568, 186.72-108.512
	c 43.008-8.416, 56.448,2.368, 100.992,46.208l 0.032-0.032l 26.208,26.208C 509.76,50.688, 509.76,56.384, 506.272,59.872z" data-tags="settings_services" />
<glyph unicode="&#x38;" d="M0,382.112l0-316.256 l 512,0 L 512,382.112 L0,382.112 z M 237.536,136.992L 66.144,136.992 L 66.144,311.008 l 171.36,0 L 237.504,136.992 z M 441.344,136.992l-144,0 L 297.344,167.040 l 144,0 L 441.344,136.992 z
	 M 441.344,184.992l-144,0 L 297.344,215.008 l 144,0 L 441.344,184.992 z M 441.344,232.992l-144,0 L 297.344,263.008 l 144,0 L 441.344,232.992 z" data-tags="settings_license" />
<glyph unicode="&#x39;" d="M 512,381.728L 273.184,243.808L 273.184,381.728L0,224L 273.184,66.272L 273.184,204.128L 512,66.272 z" data-tags="song_previous" />
<glyph unicode="&#x40;" d="M0,66.272L 238.816,204.192L 238.816,66.272L 512,224L 238.816,381.728L 238.816,243.872L0,381.728 z" data-tags="song_next" />
<glyph unicode="&#x41;" d="M0,480L 512,480L 512-32L0-32z" data-tags="song_stop" />
<glyph unicode="&#x42;" d="M 319.584,480L 488.384,480L 488.384-32L 319.584-32zM 23.584,480L 192.384,480L 192.384-32L 23.584-32z" data-tags="song_pause" />
<glyph unicode="&#x43;" d="M 34.272,480L 477.728,223.968L 34.272-32 z" data-tags="song_play" />
<glyph unicode="&#x44;" d="M 78.176,232.896c0,28, 22.688,47.872, 50.688,47.872l 241.152,0 l0-38.368 l 96.48,80.64l-96.48,83.744l0-47.904 L 128.864,358.88 
			C 57.696,358.848,0,303.904,0,232.736c0-34.976, 14.016-65.504, 36.64-88.544l 61.376,51.072C 86.016,204.352, 78.176,216.576, 78.176,232.896zM 475.36,303.68l-61.376-51.328c 12-9.056, 19.84-20.96, 19.84-37.28c0-28-22.688-47.904-50.656-47.904L 141.984,167.168 l0,38.4 l-96.48-80.672
			l 96.48-83.712l0,47.904 l 241.152,0 c 71.168,0, 128.864,54.944, 128.864,126.112C 512,250.208, 498.016,280.672, 475.36,303.68z" data-tags="song_repeat" />
<glyph unicode="&#x45;" d="M 366.176,124.8c-11.968,3.744-27.2,13.536-44.224,30.624C 307.36,169.76, 292.288,188.16, 276.8,208.288
	C 273.12,203.36, 269.44,198.464, 265.696,193.44c-10.048-13.696-20.416-27.488-30.944-41.056c 36.736-44.64, 74.88-88.384, 131.424-95.584l0-52.096 L 512,88.896
	l-145.824,84.16L 366.176,124.8 z M 123.136,293.12c 14.56-14.304, 29.664-32.736, 45.152-52.864c 3.776,5.088, 7.52,10.048, 11.296,15.2
	c 10.080,13.536, 20.256,27.264, 30.72,40.736c-39.168,47.52-79.744,94.656-142.72,96.96L 0.032,393.152 l0-67.552 l 67.552,0 C 80.224,326.112, 100.064,316.224, 123.136,293.12z
	 M 366.176,323.808l0-48.896 L 512,359.104l-145.824,84.16l0-51.072 c-36.768-4.224-66.112-26.016-91.68-51.008C 232.128,299.072, 195.072,241.472, 158.496,195.744
	c-36-47.072-72.16-75.2-90.944-72.768L0,122.976 l0-67.552 l 67.552,0 c 42.176,0.544, 74.88,24.448, 103.072,51.968c 42.336,42.176, 79.424,99.68, 115.936,145.472
	C 316.384,291.744, 346.080,317.312, 366.176,323.808z" data-tags="song_shuffle" />
<glyph unicode="&#x46;" d="M 408.064,465.088L 225.856,316.48L 225.728,316.48 L 133.344,316.48 c-16.256,0-29.408-13.184-29.408-29.504l0-125.984 
	c0-16.288, 13.184-29.472, 29.408-29.472l 92.384,0 l 0.128,0 l 182.24-148.608L 408.096,465.088 z" data-tags="ui_volume-down" />
<glyph unicode="&#x47;" d="M 304.16,465.088L 121.92,316.48L 121.792,316.48 L 29.408,316.48 C 13.184,316.48,0,303.296,0,286.976l0-125.984 c0-16.32, 13.184-29.504, 29.408-29.504l 92.384,0 L 121.92,131.488 
		l 182.24-148.608L 304.16,465.088 zM 376,34.272c 181.376,63.040, 181.28,316.384,0,379.552c-15.392,5.312-21.952-19.040-6.688-24.416c 157.344-54.752, 157.408-276.096,0-330.816
		C 354.048,53.216, 360.608,28.864, 376,34.272zM 376.928,126.784c 74.816,45.888, 74.752,148.544,0,194.464c-13.92,8.544-26.496-13.28-12.736-21.76c 58.592-36, 58.592-115.040,0-151.008
		C 350.432,140.032, 363.008,118.24, 376.928,126.784z" data-tags="ui_volume-up" />
<glyph unicode="&#x48;" d="M 512,32.672l-173.696,173.6c 13.632,25.312, 21.408,54.304, 21.408,85.088c0,99.328-80.48,179.904-179.84,179.904
	c-99.328,0-179.904-80.608-179.904-179.904c0-99.328, 80.608-179.904, 179.904-179.904c 39.808,0, 76.48,13.056, 106.24,35.008l 169.888-169.824L 512,32.672z
	 M 74.368,291.392c0,58.272, 47.264,105.536, 105.504,105.536c 58.272,0, 105.504-47.264, 105.504-105.536S 238.144,185.888, 179.872,185.888
	C 121.632,185.888, 74.368,233.12, 74.368,291.392z" data-tags="ui_search" />
<glyph unicode="&#x49;" d="M 512,287.008L 319.072,287.008L 319.072,480L 192.928,480L 192.928,287.008L0,287.008L0,160.896L 192.928,160.896L 192.928-32L 319.072-32L 319.072,160.896L 512,160.896 z" data-tags="ui_plus" />
<glyph unicode="&#x50;" d="M0,287.008L 512,287.008L 512,160.928L0,160.928z" data-tags="ui_minus" />
<glyph unicode="&#x51;" d="M 434.304,466.016L 176.864,137.376L 74.72,255.904L0,191.456L 180.544-17.984L 512,405.184 z" data-tags="ui_checkmark" />
<glyph unicode="&#x52;" d="M 511.104,428.192L 460.192,479.104L 256,274.912L 51.808,479.104L 0.896,428.192L 205.088,224L 0.896,19.808L 51.808-31.104L 256,173.088L 460.192-31.104L 511.104,19.808L 306.912,224 z" data-tags="ui_close" />
<glyph unicode="&#x53;" d="M0,224A64.416,64.416 180 1 1 128.832,224A64.416,64.416 180 1 1 0,224zM 191.616,224A64.416,64.416 180 1 1 320.448,224A64.416,64.416 180 1 1 191.616,224zM 383.168,224A64.416,64.416 180 1 1 512,224A64.416,64.416 180 1 1 383.168,224z" data-tags="ui_more" />
<glyph unicode="&#x54;" d="M0,84.832L 255.968,363.136L 512,84.832 z" data-tags="tri_eq-up" />
<glyph unicode="&#x55;" d="M 116.864,480L 395.136,224.032L 116.864-32 z" data-tags="tri_eq-right" />
<glyph unicode="&#x56;" d="M 512,363.136L 256.032,84.864L0,363.136 z" data-tags="tri_eq-down" />
<glyph unicode="&#x57;" d="M 395.136-32L 116.864,223.968L 395.136,480 z" data-tags="tri_eq-left" />
<glyph unicode="&#x58;" d="M 94.208,227.104L 353.28-32L 417.792,32.544L 224.16,226.144L 413.472,415.488L 348.96,480L 159.616,290.688L 158.72,291.584 z" data-tags="ui_arrow-left" />
<glyph unicode="&#x59;" d="M 417.792,220.896L 158.72,480L 94.208,415.456L 287.84,221.856L 98.528,32.512L 163.040-32L 352.384,157.312L 353.28,156.416 
	z" data-tags="ui_arrow-right" />
<glyph unicode="&#x60;" d="M0,480l0-512 l 512,0 L 512,480 L0,480 z M 390.016,148.448L 390.016,148.448c-0.384-19.488-17.568-38.304-42.208-44.256
	c-28.256-6.848-55.424,5.632-60.864,28c-5.44,22.272, 13.024,45.92, 41.216,52.768c 12.864,3.136, 25.472,2.176, 36-1.824L 364.16,291.328 
	C 285.984,286.080, 225.728,264.992, 225.728,264.992l0-145.472 c 2.592-21.088-15.36-42.496-41.952-48.928c-28.192-6.848-55.424,5.664-60.864,27.968
	c-5.44,22.304, 13.024,45.984, 41.248,52.832c 13.056,3.168, 25.952,2.144, 36.512-2.048l 0.064,194.688c0,0, 85.216,38.4, 189.248,34.976
	C 390.016,339.424, 390.016,148.448, 390.016,148.448z" data-tags="view_default" />
<glyph unicode="&#x61;" d="M0,470.176L 512,470.176L 512,394.592L0,394.592zM0,331.296L 512,331.296L 512,255.712L0,255.712zM0,192.32L 512,192.32L 512,116.736L0,116.736zM0,53.408L 512,53.408L 512-22.176L0-22.176z" data-tags="view_list" />
<glyph unicode="&#x62;" d="M0,480L 214.528,480L 214.528,265.472L0,265.472zM 297.472,480L 512,480L 512,265.472L 297.472,265.472zM0,182.528L 214.528,182.528L 214.528-32L0-32zM 297.472,182.528L 512,182.528L 512-32L 297.472-32z" data-tags="view_grid" />
<glyph unicode="&#x63;" d="M 419.84,350.976L 471.072,350.976L 471.072,94.944L 419.84,94.944zM 491.488,320.224L 512,320.224L 512,115.456L 491.488,115.456zM 40.928,350.976L 92.16,350.976L 92.16,94.944L 40.928,94.944zM0,320.224L 20.512,320.224L 20.512,115.456L0,115.456zM 112.672,367.36L 399.36,367.36L 399.36,80.608L 112.672,80.608z" data-tags="view_album" />
<glyph unicode="&#x20;" horiz-adv-x="256" />
</font>
</defs>
</svg>
